l Dedo 2011-Pelicula Argentina[Audio Latino] [HQ][1 Link]

El Dedo  [HQ][1 Link]|Peso:623MB

Un pequeño pueblo se ve revolucionado ante el asesinato del candidato a intendente. Su dedo, tras un juramento de , reposará en un frasco del almacén y será la excusa para desentrañar el asesinato, dar vuelta una elección a intendente, refrescar historias de amor y avivar al tranquilo pueblo.

Info 

Fecha de lanzamiento 26 de Mayo
Genero:Comedia
Premios:Mejor  Prima en el Festival Internacional de  en Guadalajara
Protagonistasabián Vena, Puma Goity, MAriana Briski, Martín Seefeld, Roly Serrano
Dirigido:Sergio Teubal
Escrito:Carina Catelli
Guión:Carina Catelli
Producido:Metrópolis Films

Info Codec

General
Complete name : El Dedo_By_Almacervecera.avi
Format : AVI
Format/Info : Audio  Interleave
File size : 678 MiB
Duration : 3h 16mn
Overall bit rate : 483 Kbps
Writing application : Lavf52.39.1
Video
Format : xvid
Codec ID : xvid
Duration : 1h 38mn
Bit rate : 889 Kbps
Width : 480 pixels
Height : 360 pixels
Display aspect ratio : 4:3
Frame rate : 25.000 fps
Resolution : 24 bits
Bits/(Pixel*Frame) : 0.206
Stream size : 624 MiB (92%)

Audio #1
ID : 1
Format : MPEG Audio
Format version : Version 2
Format profile : Layer 3
Codec ID : 55
Codec ID/Hint : MP3
Duration : 3h 16mn
Bit rate mode : Constant
Bit rate : 64.0 Kbps
Channel(s) : 2 channels
Sampling rate : 22.05 KHz
Resolution : 16 bits
Stream size : 45.0 MiB (7%)
Alignment : Aligned on interleaves
Interleave, duration : 26 ms (0.65 video frame)
Writing library : LAME3.96.1


Link::

http://www.wupload.com/file/4815087 

Deja un comentario

Tu dirección de correo electrónico no será publicada. Los campos obligatorios están marcados con *

*
*
Website